Всегда рабочее зеркало без VPN и Proxy просто перед .vidak.icu напиши любое слово или цифру, Пример http://7m2s.vidak.icu

Лицензия

MVO

1 сезон

1

1 сезон

iTunes

1 сезон

13

1 сезон

Deluxe

pack

Рекомендуем

Repack

30

ВАЖНО

RePack

MK11

RePack

jed

RePack

fifa19

RePack

RDR2

RePack

NEED FOR SPEED™ PAYBACK

Кинопоиск HD

6 сезон

 Острые козырьки 6 сезон

Все сериалы

все сериалы на PB.wtf

RePack

FAR CRY 5
  
Magnet ссылка

Мажор / Сезон: 4 / Серии: 1-7 из 8 (Нурбек Эген) [2022, Драма, криминал, WEBRip] 1j8.vidak.icu

Мажор через торрент 1j8.vidak.icu

Раздают: 3 [ 317 KB/s ] Качают: 3 [ 0 KB/s ]
Размер: 4.58 GB | Добавлен: 5 д. назад | Торрент скачан:19 раз
Смотреть онлайн Мажор | Скачать    Ребята, помогите собрать деньги на оплату серверов!!!

01-07-2022 22:03 Мажор Скачать торрент  

Мажор 4
Год выпуска: 2022
Страна: Россия
Производство: ООО Продюсерская компания «Среда»
Жанр: Драма, криминал
Продолжительность: ~ 00:50:00
Перевод: Не требуется
Субтитры: Русские

Режиссер: Нурбек Эген

rating

В ролях: Павел Прилучный, Дмитрий Шевченко, Александр Обласов, Игорь Жижикин, Любовь Аксёнова, Карина Разумовская, Анна Цуканова-Котт, Владимир Селезнёв, Дана Абызова, Виталия Корниенко, Любовь Толкалина, Павел Чинарёв, Константин Адаев, Юлия Беляева, Владимир Брест, Ефим Иванов, Нина Литвинова, Василий Молодцов, Денис Мотков, Денис Бондарков, Анна Баринова, Софья Скальская, Мария Бокова, Остап Богомолов, Наталия Колоскова, Серафим Долбунов, Сергей Остапов, Григорий Кокоткин, Арина Горбачёва, Андрей Титченко, Рафаэль Ханбеков, Роман Ёлкин, Арсен Мустафаев, Сергей Астахов

Описание: Третий сезон закончился беспорядочной перестрелкой, после которой Игорь Соколовский и капитан Вика Родионова остались лежать в кровавой луже. Мажор выжил, а Вика - нет. С тех пор прошло много лет, и четвёртый сезон рассказывает, как за это время изменился Игорь Соколовский. Он больше не служит в полиции, а работает с бывшим конкурентом и нынешним партнёром Игнатьевым. Соколовский прожигает жизнь, транжирит деньги и не особо заботится об окружающих его людях - так происходит до тех пор, пока он случайно не узнаёт, что у него давно есть дочь, и именно он - отец Сони. В этот момент мир Мажора перевернулся, он решает стать другом для 9-летней девочки, но его настигает прошлое, и в опасности оказываются все, кто когда-либо был рядом с Игорем Соколовским.

Качество: WEBRip
Формат: AVI

Видео: XviD, 720x304, ~ 1650 Кбит/с, 0.301 bit/pixel, 25 Кадр/с
Аудио: 48.0 kHz, AC3 Dolby Digital, 2/0 (L,R) ch, ~ 192 kbps

Общее
Полное имя : D:\Mazhor.s04.WEB-DLRip.25Kuzmich\Mazhor.s04e01.WEB-DLRip.25Kuzmich.avi
Формат : AVI
Формат/Информация : Audio Video Interleave
Размер файла : 662 Мбайт
Продолжительность : 50 м. 4 с.
Общий поток : 1 848 Кбит/сек
Программа кодирования : VirtualDubMod 1.5.10.3 | www.virtualdub-fr.org || (build 2550/release)
Библиотека кодирования : VirtualDubMod build 2550/release

Видео
Идентификатор : 0
Формат : MPEG-4 Visual
Профиль формата : Advanced [email protected]
Настройки формата : BVOP1
Параметр BVOP формата : 1
Параметр QPel формата : Нет
Параметр GMC формата : Без точки перехода
Параметр матрицы формата : Default (MPEG)
Идентификатор кодека : XVID
Идентификатор кодека/Подсказка : XviD
Продолжительность : 50 м. 4 с.
Битрейт : 1 646 Кбит/сек
Ширина : 720 пикселей
Высота : 304 пикселя
Соотношение сторон : 2,35:1
Частота кадров : 25,000 кадров/сек
Цветовое пространство : YUV
Субдискретизация насыщенности : 4:2:0
Битовая глубина : 8 бит
Тип развёртки : Прогрессивная
Метод сжатия : С потерями
Бит/(Пиксели*Кадры) : 0.301
Размер потока : 590 Мбайт (89%)
Библиотека кодирования : XviD 73

Аудио
Идентификатор : 1
Формат : AC-3
Формат/Информация : Audio Coding 3
Коммерческое название : Dolby Digital
Идентификатор кодека : 2000
Продолжительность : 50 м. 4 с.
Вид битрейта : Постоянный
Битрейт : 192 Кбит/сек
Каналы : 2 канала
Channel layout : L R
Частота : 48,0 КГц
Частота кадров : 31,250 кадров/сек (1536 SPF)
Метод сжатия : С потерями
Размер потока : 68,8 Мбайт (10%)
Выравнивание : Разделение по промежуткам
Продолжительность промежутка : 40 мс. (1,00 видеокадр)
Время предзагрузки промежутка : 500 мс.
Service kind : Complete Main

Внимание! Раздача ведётся путём добавления новых серий; при каждом добавлении создаётся новый торрент. Чтобы начать докачку новой серии, пользователям необходимо сделать следующее:
(1) остановить скачивание,
(2) удалить старый торрент у себя из клиента (старые серии удалять не надо),
(3) скачать новый торрент и запустить его у себя в клиенте вместо старого, при этом указать клиенту путь в старую папку куда и должно происходить скачивание новых серий.
Ваш клиент при этом должен произвести хеширование (проверку) старой папки (если не производит сам - помогите ему сделать это), и будет докачивать только те серии которых у вас ещё нет. Старые серии при этом не удаляются, а продолжают раздаваться!
Eсли вы уже удалили старые серии, то предотвратить повторную закачку старых серий можно, отжав галочку в соответствующих местах при запуске нового торрента. По возможности, желательно не удалять старые серии как можно дольше чтобы релизёр не столько продолжал раздавать старые серии, а смог сконцентрироваться на новых.
1j8.vidak.icu



Скачать Мажор через торрент https://i120.fastpic.org/big/2022/0701/ca/5c7935b1a088d5aca9548697491a1fca.jpg?r=1 Скачать, смотреть онлайн Мажор бесплантно в хорошем качестве Описание: Третий сезон закончился беспорядочной перестрелкой, после которой Игорь Соколовский и капитан Вика Родионова остались лежать в ... 8.7 10 17
Торрент: Зарегистрирован [2022-08-12 23:52] · скачан: 19 раз
Статус: √ проверено
Размер: 4.58 GB
Как cкачать? Как скачать Мажор через торрент | UTorrent

% Раздел Тема Автор DL S | L
Наши сериалы [ 4.43 GB ] Мажор / Сезон: 4 / Серии: 1-7 из 8 [2022 WEBRip-AVC] bober100 Скачать
7 | 7
Наши сериалы [ 10.32 GB ] Мажор / Сезон: 4 / Серии: 1-7 из 8 [2022 WEBRip 720p] bober100 Скачать
4 | 4
Наши сериалы [ 15.23 GB ] Мажор / Сезон: 4 / Серии: 1-7 из 8 [2022 WEBRip 1080p] bober100 Скачать
7 | 5

28-11-2019 20:33  

Отключить вcю реклaмy на сайте

    Дорогой пользователь! Огромная просьба, поблагодарите релизера, оцените раздачу и оставьте свои комментарий, если Вы скачали Мажор через торрент бесплатно!
    Комментировать посты могут только пользователи прошедшие не сложную регистрацию
    Показать сообщения:    

    Мажор через торрент
    Скачать бесплатно Мажор
    Мажор скачать торрент
    Мажор смотреть онлайн
    Cкачать фильм Мажор бесплатно
    Мажор скачать торрент в хорошем качестве
    Мажор смотреть онлайн бесплатно в хорошем качестве


    Вы не можете начинать темы
    Вы не можете отвечать на сообщения
    Вы не можете редактировать свои сообщения
    Вы не можете удалять свои сообщения
    Вы не можете голосовать в опросах
    Вы не можете прикреплять файлы к сообщениям
    Вы можете скачивать файлы